Скачать сериал отряд 2 сезон через торрент
 

скачать сериал отряд 2 сезон через торрент










































































































































Скачать сериал отряд 2 сезон через торрент


Но когда - неизвестно. Первая часть фильма была показана, но вот про вторую пока молчок. В первой части было 16 серий, соответственно, вероятнее всего и во второй будет столько же т. Размер потока : 109 Мбайт 4% Информация о торренте: Размер содержимого: 42. Может теперь создатели сериала, компания СтарМедия, все же начнет съемки 2 сезона сериала "Отряд"? Ребята заметили, что испачкавшись в ней, они странным образом стали обладать умением превращаться в динозавров. Надо заметить - состав супергероев довольно непостоянный — время от времени к ним присоединяются иные участники, чтобы сразиться с той или иной угрозой. Он мечтает сделаться самым главным динозавром планеты и господствовать над всем её населением. Можно смотреть, начиная с 13 мая 2013 года. К тому же, уже составлен сюжет этого сериала, поэтому мне кажется, что второго сезона уже не избежать, он обязательно будет.




Я большой любитель жанра, но здесь,не знаю,мне кажется какая -то тягомотина,посмотрел с горем пополам 4-е серии и у меня вопрос, когда будет интересно-то,может мне еще пару серий потерпеть? Размер потока : 109 Мбайт 4% Информация о торренте: Размер содержимого: 42. Им хочется почувствовать себя чуть-чуть взрослее. Вместе обещанных губернатору бойцов спецназа на поиски пропавших выезжает сборный милицейский отряд.




Цель создания армии у доктора была одна - суперзлодеи должны были отыскать для него все фракталы - каждый из осколков меча обладал уникальной силой. Сериал доступен на нашем торрент-трекере бесплатно, без регистрации и смс. Ребята заметили, что испачкавшись в ней, они странным образом стали обладать умением превращаться в динозавров. Но согласно "кулуарной" информации поклонников, второй сезон должен был стартовать к показу? Им хочется почувствовать себя чуть-чуть взрослее. Странная тина, покрывавшая дно водоёма, сыграла с беглецами злую шутку. А очень просто: потому что на протяжении многих лет со злодеями всех м.


Скачать сериал отряд 2 сезон через торрент



Но когда - неизвестно. Но Доктор Дум не собирается на этом останавливаться. Несмотря на свою простоту - фильм интересный и захватывающий.





Но Доктор Дум не собирается на этом останавливаться. Его может даже и не быть.





Кубок мира по волейболу мужчины расписание



Мальчик в полосатой пижаме скачать книгу fb2



Договор дарения квартиры с пожизненным проживанием дарителя образец

Rewards
Recent Posts